MotoGP 2018 | Page 103 | GTAMotorcycle.com

MotoGP 2018

Winales_2017

Well-known member
They are already up there:

ATF: approx 15:06
Post-race PC: approx 15:31

Let me know if you need more help.
Looking good on the replay, JC! I didn't think we'd have any racing this year, so its's a pleasant surprise, I checked my email and DORNA was trying to lure me back but they're still charging ~130 EUR for what is at best 1/2 season, normally they have discount after the mid-point (Sachesenring?) which is normally around now.

Thanks!
 

johnscruiser

Well-known member
Site Supporter
Looking good on the replay, JC! I didn't think we'd have any racing this year, so its's a pleasant surprise, I checked my email and DORNA was trying to lure me back but they're still charging ~130 EUR for what is at best 1/2 season, normally they have discount after the mid-point (Sachesenring?) which is normally around now.

Thanks!
Glad it's working good for ya, some users have reported very slow speeds from the new server in Texas vs. the old one in Montreal. Server is a monster, TONS of bandwidth, so must just be a slow route to some locations :(

Dorna not going to give any discounts I don't think, need to make back all that money lost from no spectators at the tracks.
 

beverage

Well-known member
Hey All. Could I trouble someone to PM the links to me? Didn't get a chance to watch on the weekend, but hoping to catch up. Thanks!
 

johnscruiser

Well-known member
Site Supporter
Hey All. Could I trouble someone to PM the links to me? Didn't get a chance to watch on the weekend, but hoping to catch up. Thanks!
Sent! Watch it quick because it gets wiped on Thursday for this weeks race!

Just finished watching everything – some crazy **** happened. I otoh had no major issues. 😅
Thank you very much @johnscruiser 🙂
Nice, thanks for the report. Did you watch the Moto3 race too? If not more crazy ish happened in it too :)
 
Last edited:

JRC1

Active member
Looks like Marquez is actually going to try and race WOW!
Will the press conference be streaming live today? The links I have are the 720 and 1080 Montreal ones, are they still the correct links? If not, could someone PM me the correct ones?

Thanks as always!
 
Last edited:

johnscruiser

Well-known member
Site Supporter
Looks like Marquez is actually going to try and race WOW!
Will the press conference be streaming live today? The links I have are the 720 and 1080 Montreal ones, are they still the correct links? If not, could someone PM me the correct ones?

Thanks as always!
Yep and yep (will be streaming the pre-event PC and you have the right links. server has moved to Texas from Montreal but the links didn't change).
 

johnscruiser

Well-known member
Site Supporter
Round 03 Pre-Event Press Conference is now LIVE STREAMING in BOTH 1080p50 and 720p50!

00:00 - MotoE Pre-Event PC
00:21 - MotoGP Pre-Event PC Pre-Show
00:30 - MotoGP Pre-Event PC
01:44 - Moto3 FP1 (when it streams)
 
Last edited:

Chap

Member
Sorry but not familiar with the m3u8. I used the link I had last year and click on the m3u8 link to download. Clicking on it open VLC player but noting happens. Can't see any live streaming. Can someone help me.
Not sure I have the right link. Can someone PM me the latest link please. Thanks for your help.
 

johnscruiser

Well-known member
Site Supporter
Sorry but not familiar with the m3u8. I used the link I had last year and click on the m3u8 link to download. Clicking on it open VLC player but noting happens. Can't see any live streaming. Can someone help me.
Not sure I have the right link. Can someone PM me the latest link please. Thanks for your help.
Sent you updated info. Try the 720p link in Chrome browser with the HLS extension installed. Let me know if you still have issues. Should be the Pre-Event PC up in there.
 

johnscruiser

Well-known member
Site Supporter
Moto3 Free Practice One (FP1) is now LIVE STREAMING in BOTH 1080p50 and 720p50!

There probably won't be any other announcements today.

As always, ENJOY!
 

herikadavidson

Active member
Moto3 Free Practice One (FP1) is now LIVE STREAMING in BOTH 1080p50 and 720p50!

There probably won't be any other announcements today.

As always, ENJOY!
Thanks a lot, Johncruiser. Is it also possible to set up the 480p link in Chrome browser? Connection issue for live streaming is still occur in the developing countries.
 

johnscruiser

Well-known member
Site Supporter
Thanks a lot, Johncruiser. Is it also possible to set up the 480p link in Chrome browser? Connection issue for live streaming is still occur in the developing countries.
I only record/restream the 720p and 1080p streams from the MotoGP .com server so no, that wouldn't be possible at the moment. I might be able to set something up for Qualifying and the Race, I'll see what I can do.

I don't see 480p available on my stream connection, only:

1080p: Bitrate: 5.554mbps, Video: h264 (Main) ([27][0][0][0] / 0x001B), yuv420p, 1920x1080 [SAR 1:1 DAR 16:9], 50 fps, 50 tbr, 90k tbn, 100 tbc, Audio: aac (LC) ([15][0][0][0] / 0x000F), 48000 Hz, stereo, fltp

720p: Bitrate: 2.554mbps, Video: h264 (Main) ([27][0][0][0] / 0x001B), yuv420p, 1280x720 [SAR 1:1 DAR 16:9], 50 fps, 50 tbr, 90k tbn, 100 tbc, Audio: aac (LC) ([15][0][0][0] / 0x000F), 48000 Hz, stereo, fltp

540p: Bitrate: 1.578mbps, Video: h264 (Main) ([27][0][0][0] / 0x001B), yuv420p, 960x540 [SAR 1:1 DAR 16:9], 50 fps, 50 tbr, 90k tbn, 100 tbc, Audio: aac (LC) ([15][0][0][0] / 0x000F), 48000 Hz, stereo, fltp

360p high quality: Bitrate: 1.214mbps, Stream #0:6: Video: h264 (Main) ([27][0][0][0] / 0x001B), yuv420p, 640x360 [SAR 1:1 DAR 16:9], 50 fps, 50 tbr, 90k tbn, 100 tbc Audio: aac (LC) ([15][0][0][0] / 0x000F), 48000 Hz, stereo, fltp

360p low quality: Bitrate: 794kbps, Video: h264 (Main) ([27][0][0][0] / 0x001B), yuv420p, 640x360 [SAR 1:1 DAR 16:9], 50 fps, 50 tbr, 90k tbn, 100 tbc, Audio: aac (LC) ([15][0][0][0] / 0x000F), 48000 Hz, stereo, fltp

Let me know which one you'd like to try and I'll see if I can get that stream set up.
 

herikadavidson

Active member
I only record/restream the 720p and 1080p streams from the MotoGP .com server so no, that wouldn't be possible at the moment. I might be able to set something up for Qualifying and the Race, I'll see what I can do.

I don't see 480p available on my stream connection, only:

1080p: Bitrate: 5.554mbps, Video: h264 (Main) ([27][0][0][0] / 0x001B), yuv420p, 1920x1080 [SAR 1:1 DAR 16:9], 50 fps, 50 tbr, 90k tbn, 100 tbc, Audio: aac (LC) ([15][0][0][0] / 0x000F), 48000 Hz, stereo, fltp

720p: Bitrate: 2.554mbps, Video: h264 (Main) ([27][0][0][0] / 0x001B), yuv420p, 1280x720 [SAR 1:1 DAR 16:9], 50 fps, 50 tbr, 90k tbn, 100 tbc, Audio: aac (LC) ([15][0][0][0] / 0x000F), 48000 Hz, stereo, fltp

540p: Bitrate: 1.578mbps, Video: h264 (Main) ([27][0][0][0] / 0x001B), yuv420p, 960x540 [SAR 1:1 DAR 16:9], 50 fps, 50 tbr, 90k tbn, 100 tbc, Audio: aac (LC) ([15][0][0][0] / 0x000F), 48000 Hz, stereo, fltp

360p high quality: Bitrate: 1.214mbps, Stream #0:6: Video: h264 (Main) ([27][0][0][0] / 0x001B), yuv420p, 640x360 [SAR 1:1 DAR 16:9], 50 fps, 50 tbr, 90k tbn, 100 tbc Audio: aac (LC) ([15][0][0][0] / 0x000F), 48000 Hz, stereo, fltp

360p low quality: Bitrate: 794kbps, Video: h264 (Main) ([27][0][0][0] / 0x001B), yuv420p, 640x360 [SAR 1:1 DAR 16:9], 50 fps, 50 tbr, 90k tbn, 100 tbc, Audio: aac (LC) ([15][0][0][0] / 0x000F), 48000 Hz, stereo, fltp

Let me know which one you'd like to try and I'll see if I can get that stream set up.
Hello Johncruiser,
Thank you for your quick response.
I choose this one:
'360p high quality: Bitrate: 1.214mbps, Stream #0:6: Video: h264 (Main) ([27][0][0][0] / 0x001B), yuv420p, 640x360 [SAR 1:1 DAR 16:9], 50 fps, 50 tbr, 90k tbn, 100 tbc Audio: aac (LC) ([15][0][0][0] / 0x000F), 48000 Hz, stereo, fltp'
I think it is fit with my internet connection speed.
Thank you so much in advance.
 

Top Bottom